osu file format v14

[General]
AudioFilename: Ending Theme Tokohana.mp3
AudioLeadIn: 1500
PreviewTime: 63067
Countdown: 0
SampleSet: None
StackLeniency: 0.7
Mode: 3
LetterboxInBreaks: 0
WidescreenStoryboard: 0

[Editor]
DistanceSpacing: 0.5
BeatDivisor: 4
GridSize: 4
TimelineZoom: 1.5

[Metadata]
Title:Tokohana
TitleUnicode:トコハナ
Artist:yanaginagi
ArtistUnicode:やなぎなぎ
Creator:richardfeder
Version:Zan's 4K EZ
Source:ブラック・ブレット
Tags:Black Bullet ending victorica_db simple_star Zan -
BeatmapID:428165
BeatmapSetID:170144

[Difficulty]
HPDrainRate:6
CircleSize:4
OverallDifficulty:7
ApproachRate:5
SliderMultiplier:1.4
SliderTickRate:1

[Events]
//Background and Video events
0,0,"bg1.jpg",0,0
//Break Periods
//Storyboard Layer 0 (Background)
//Storyboard Layer 1 (Fail)
//Storyboard Layer 2 (Pass)
//Storyboard Layer 3 (Foreground)
//Storyboard Sound Samples
//Background Colour Transformations
3,100,163,162,255

[TimingPoints]
395,400,4,2,0,20,1,0
19073,355.029585798817,4,2,0,30,1,0
54575,-100,4,2,0,20,0,0
63096,-100,4,2,0,30,0,0

[HitObjects]
64,192,19073,5,0,0:0:0:0:
320,192,19073,1,0,0:0:0:0:
448,192,19428,1,0,0:0:0:70:snare1.wav
192,192,19783,1,0,0:0:0:0:
320,192,20138,1,0,0:0:0:70:snare1.wav
448,192,20138,1,0,0:0:0:0:
320,192,20493,1,0,0:0:0:0:
64,192,20848,1,0,0:0:0:70:snare1.wav
192,192,20848,1,0,0:0:0:0:
320,192,21203,1,0,0:0:0:0:
192,192,21558,1,0,0:0:0:70:snare1.wav
448,192,21558,1,0,0:0:0:0:
64,192,21913,1,0,0:0:0:0:
320,192,22268,1,0,0:0:0:70:snare1.wav
448,192,22268,1,0,0:0:0:0:
192,192,22623,1,0,0:0:0:0:
320,192,22978,1,0,0:0:0:70:snare1.wav
64,192,22978,1,0,0:0:0:0:
448,192,23333,1,0,0:0:0:0:
64,192,23688,1,0,0:0:0:70:snare1.wav
320,192,23688,1,0,0:0:0:0:
192,192,24043,1,0,0:0:0:0:
448,192,24398,1,0,0:0:0:70:snare1.wav
448,192,24575,1,0,0:0:0:0:
64,192,24753,1,0,0:0:0:0:snare1.wav
192,192,24753,1,0,0:0:0:0:
320,192,25108,1,0,0:0:0:70:snare1.wav
448,192,25108,1,0,0:0:0:0:
192,192,25463,1,0,0:0:0:0:
64,192,25818,1,0,0:0:0:70:snare1.wav
320,192,25818,1,0,0:0:0:0:
192,192,26173,1,0,0:0:0:0:
448,192,26528,1,0,0:0:0:70:snare1.wav
320,192,26528,1,0,0:0:0:0:
64,192,26883,1,0,0:0:0:0:
320,192,27238,1,0,0:0:0:70:snare1.wav
448,192,27238,1,0,0:0:0:0:
192,192,27593,1,0,0:0:0:0:
64,192,27948,1,0,0:0:0:70:snare1.wav
320,192,27948,1,0,0:0:0:0:
448,192,28303,1,0,0:0:0:0:
64,192,28658,1,0,0:0:0:70:snare1.wav
320,192,28658,128,0,29013:0:0:0:0:
192,192,29013,1,4,0:0:0:70:snare1.wav
64,192,29368,1,0,0:0:0:0:
448,192,29723,1,0,0:0:0:0:
64,192,30078,1,0,0:0:0:0:
192,192,30433,1,4,0:0:0:0:
448,192,30433,1,0,0:0:0:0:
320,192,30788,1,0,0:0:0:0:
320,192,31144,1,0,0:0:0:0:
64,192,31499,1,0,0:0:0:0:
64,192,31854,1,0,0:0:0:0:
448,192,32209,1,0,0:0:0:0:
448,192,32564,1,0,0:0:0:0:
320,192,32919,1,0,0:0:0:0:
64,192,33274,1,2,0:0:0:0:
192,192,33274,1,0,0:0:0:0:
448,192,33629,1,0,0:0:0:0:
64,192,33984,1,0,0:0:0:0:
320,192,34339,1,0,0:0:0:0:
448,192,34694,1,0,0:0:0:0:
320,192,35049,1,0,0:0:0:0:
192,192,35404,1,0,0:0:0:0:
64,192,35759,1,2,0:0:0:0:
448,192,36114,1,2,0:0:0:0:
192,192,36114,1,0,0:0:0:0:
320,192,36469,1,0,0:0:0:0:
64,192,36824,1,0,0:0:0:0:
448,192,37179,1,0,0:0:0:0:
192,192,37534,1,0,0:0:0:0:
64,192,37889,1,0,0:0:0:0:
320,192,38244,1,0,0:0:0:0:
448,192,38599,1,4,0:0:0:0:
192,192,38954,1,4,0:0:0:0:
64,192,38954,1,0,0:0:0:0:
320,192,39309,1,0,0:0:0:70:snare1.wav
448,192,39309,1,0,0:0:0:0:
320,192,39664,1,0,0:0:0:0:
192,192,40019,1,0,0:0:0:70:snare1.wav
448,192,40019,1,0,0:0:0:0:
192,192,40374,1,4,0:0:0:0:
64,192,40729,1,0,0:0:0:70:snare1.wav
320,192,40729,1,0,0:0:0:0:
192,192,41084,1,0,0:0:0:70:snare1.wav
448,192,41439,1,0,0:0:0:70:snare1.wav
320,192,41617,1,0,0:0:0:70:snare1.wav
192,192,41794,1,4,0:0:0:0:snare1.wav
448,192,41794,1,0,0:0:0:0:
64,192,42149,1,0,0:0:0:70:snare1.wav
320,192,42504,1,0,0:0:0:0:
64,192,42859,1,0,0:0:0:70:snare1.wav
320,192,43215,1,0,0:0:0:0:
448,192,43570,1,0,0:0:0:70:snare1.wav
192,192,43925,1,0,0:0:0:0:
448,192,44280,1,0,0:0:0:70:snare1.wav
192,192,44635,1,0,0:0:0:0:
64,192,44990,1,0,0:0:0:70:snare1.wav
192,192,45345,1,0,0:0:0:0:
448,192,45700,1,0,0:0:0:70:snare1.wav
320,192,46055,1,0,0:0:0:0:
448,192,46410,1,0,0:0:0:70:snare1.wav
320,192,46765,1,0,0:0:0:0:
192,192,47120,1,0,0:0:0:70:snare1.wav
64,192,47475,1,4,0:0:0:0:
320,192,47475,1,0,0:0:0:0:
192,192,47830,1,0,0:0:0:70:snare1.wav
320,192,48185,1,0,0:0:0:0:
64,192,48540,1,0,0:0:0:70:snare1.wav
192,192,48895,1,0,0:0:0:0:
448,192,49250,1,0,0:0:0:70:snare1.wav
64,192,49605,1,0,0:0:0:0:
64,192,49783,1,0,0:0:0:0:
320,192,49960,1,4,0:0:0:70:snare1.wav
192,192,49960,1,0,0:0:0:0:
448,192,50315,1,0,0:0:0:0:
64,192,50670,1,0,0:0:0:0:
448,192,51025,1,0,0:0:0:0:
448,192,51203,1,0,0:0:0:0:
192,192,51380,1,0,0:0:0:70:snare1.wav
320,192,51380,1,0,0:0:0:0:
64,192,51735,1,0,0:0:0:0:
192,192,52090,1,0,0:0:0:70:snare1.wav
448,192,52445,1,0,0:0:0:0:
64,192,52623,1,0,0:0:0:70:snare1.wav
320,192,52800,1,0,0:0:0:70:snare1.wav
448,192,52978,1,0,0:0:0:70:snare1.wav
64,192,53155,1,0,0:0:0:0:
192,192,53155,1,0,0:0:0:0:
448,192,54575,1,0,0:0:0:0:
320,192,55286,1,0,0:0:0:0:
192,192,55463,1,0,0:0:0:0:
64,192,55641,1,0,0:0:0:0:
448,192,55996,1,0,0:0:0:0:
64,192,56706,1,0,0:0:0:0:
320,192,57416,1,0,0:0:0:0:
192,192,58126,1,0,0:0:0:0:
320,192,58303,1,0,0:0:0:0:
448,192,58481,1,0,0:0:0:0:
192,192,58836,1,0,0:0:0:0:
64,192,59546,1,0,0:0:0:0:
448,192,60256,1,0,0:0:0:0:
320,192,60966,1,0,0:0:0:0:
192,192,61144,1,0,0:0:0:0:
64,192,61321,1,0,0:0:0:0:
192,192,61676,128,4,63096:0:0:0:0:
448,192,61676,128,0,63096:0:0:0:0:
64,192,64516,1,0,0:0:0:0:
320,192,64516,1,0,0:0:0:0:
192,192,64871,1,0,0:0:0:70:snare1.wav
320,192,65226,1,0,0:0:0:0:
192,192,65581,1,0,0:0:0:70:snare1.wav
320,192,65936,1,0,0:0:0:0:
64,192,66291,1,0,0:0:0:70:snare1.wav
320,192,66646,1,0,0:0:0:0:
192,192,67001,1,0,0:0:0:70:snare1.wav
448,192,67357,1,0,0:0:0:0:
192,192,67712,1,0,0:0:0:70:snare1.wav
448,192,68067,1,0,0:0:0:0:
64,192,68422,1,0,0:0:0:70:snare1.wav
448,192,68777,1,0,0:0:0:0:
64,192,69132,1,0,0:0:0:70:snare1.wav
448,192,69487,1,0,0:0:0:0:
320,192,69842,1,0,0:0:0:70:snare1.wav
192,192,70197,1,0,0:0:0:0:
448,192,70197,1,4,0:0:0:0:
64,192,70552,1,0,0:0:0:70:snare1.wav
448,192,70907,1,0,0:0:0:0:
64,192,71262,1,0,0:0:0:70:snare1.wav
448,192,71617,1,0,0:0:0:0:
192,192,71972,1,0,0:0:0:70:snare1.wav
320,192,72327,1,0,0:0:0:0:
192,192,72682,1,4,0:0:0:70:snare1.wav
448,192,72682,1,4,0:0:0:0:
320,192,73037,1,4,0:0:0:0:
64,192,73037,1,0,0:0:0:0:
448,192,73392,1,0,0:0:0:0:
192,192,73570,1,4,0:0:0:0:
320,192,73925,1,0,0:0:0:0:
448,192,74280,128,0,74812:0:0:0:0:
320,192,74812,128,0,75167:0:0:0:0:
192,192,75167,128,0,75522:0:0:0:0:
64,192,75522,128,0,75877:0:0:0:0:
448,192,75877,1,4,0:0:0:0:
192,192,75877,1,0,0:0:0:0:
320,192,76232,1,4,0:0:0:70:snare1.wav
64,192,76587,1,0,0:0:0:0:
448,192,76942,1,0,0:0:0:70:snare1.wav
192,192,77297,1,0,0:0:0:0:
448,192,77652,1,0,0:0:0:70:snare1.wav
64,192,78007,1,0,0:0:0:0:
448,192,78362,1,0,0:0:0:70:snare1.wav
192,192,78717,1,0,0:0:0:0:
448,192,79073,1,0,0:0:0:70:snare1.wav
64,192,79428,1,0,0:0:0:0:
320,192,79783,1,0,0:0:0:70:snare1.wav
192,192,80138,1,0,0:0:0:0:
320,192,80493,1,0,0:0:0:70:snare1.wav
64,192,80848,1,0,0:0:0:0:
448,192,81025,1,0,0:0:0:70:snare1.wav
192,192,81380,1,4,0:0:0:0:
320,192,81558,1,4,0:0:0:0:
448,192,81913,1,0,0:0:0:0:
448,192,82268,1,0,0:0:0:0:
64,192,82623,1,0,0:0:0:0:
64,192,82978,1,0,0:0:0:0:
192,192,83333,1,0,0:0:0:0:
320,192,83688,1,0,0:0:0:0:
192,192,84043,1,0,0:0:0:0:
192,192,84398,1,0,0:0:0:0:
320,192,84398,1,0,0:0:0:0:
192,192,84753,1,0,0:0:0:0:
448,192,84930,1,0,0:0:0:0:
320,192,85108,1,0,0:0:0:0:
192,192,85463,1,0,0:0:0:0:
448,192,85818,128,4,86173:0:0:0:0:
64,192,85818,1,4,0:0:0:0:
192,192,86173,128,0,86528:0:0:0:0:
320,192,86528,128,0,86883:0:0:0:0:
64,192,86883,128,0,87593:0:0:0:0:
